B C Baal – The Private Detective (Bengali) – 1CD – Web Series Rip[x264 – AAC3(5.1Ch)]

B C Baal – The Private Detective (Bengali) –
1CD – Web Series Rip[x264 – AAC3(5.1Ch)]  





Code


General
Format                                   : Matroska
Format version                           : Version 2
File size                                : 701 MiB
Duration                                 : 2 h 2 min
Video
ID                                       : 1
Format                                   : AVC
Format/Info                              : Advanced Video Codec
Format profile                           : High@L3
Format settings                          : CABAC / 4 Ref Frames
Format settings, CABAC                   : Yes
Format settings, RefFrames               : 4 frames
Codec ID                                 : V_MPEG4/ISO/AVC
Duration                                 : 2 h 2 min
Bit rate                                 : 671 kb/s
Width                                    : 720 pixels
Height                                   : 296 pixels
Display aspect ratio                     : 2.40:1
Frame rate mode                          : Constant
Frame rate                               : 25.000 FPS
Color space                              : YUV
Chroma subsampling                       : 4:2:0
Bit depth                                : 8 bits
Scan type                                : Progressive
Bits/(Pixel*Frame)                       : 0.126
Stream size                              : 587 MiB (84%)

Audio
ID                                       : 2
Format                                   : AAC
Format/Info                              : Advanced Audio Codec
Format profile                           : HE-AAC / LC
Format settings                          : Explicit
Codec ID                                 : A_AAC-2
Duration                                 : 2 h 2 min
Bit rate                                 : 128 kb/s
Channel(s)                               : 6 channels
Channel positions                        : Front: L C R, Side: L R, LFE
Sampling rate                            : 48.0 kHz
Stream size                              : 112 MiB (16%)

Thumbnail



Image

openload Download Link
indishare Download Link
bdupload. Download Link

Check Also

Punascha (2017) – Bengali-Movie-HDRip-x264-AAC3

CODE: SELECT ALL General Punascha (2017) - Bengali Movie - 1CD - HD Rip[Mp4 - AAC3(2Ch)].mkv …

Leave a Reply

Your email address will not be published. Required fields are marked *